Eminem - Revival (2017) FLAC CD | Trail of the Pink Panther (1982) | The Gifted - Kiválaszt...

Lupin III - Un diamante per sempre (2003 Torrent Free Download

Seeders : 708   &   Leechers : 785      12-08-2017 (5 months)
Added: ago by robbyrs ***** in Anime   1.0 GB   Hits : 32
Info Hash: 2C143AB659BC6E6D847BAA2267C036EC4B992551 Download
Lupin III - Un diamante per sempre (2003 Torrent Download

Anonymous and Direct Download movies , software , shows...

Fast Safe Anonymous
movies, software, shows...

Torrent Description



Lupin III - Un diamante per sempre (2003).H264.Italian.jpn.Ac3.sub.ita.iCV-MIRCrew




NO FOUND ONLY ORIGINAL RELEASE





My release is always in double track audio italian and Original audio
for select it use VLC or dvd player home
not use wmp

Lupin III - Un diamante per sempre (2003)

PRESENTI ANCHE i SOTTOTITOLI

ESTERNI (ita)







Autore Monkey Punch
Regia Jun Kawagoe
Musiche Yūji Ōno
Studio TMS Entertainment
Rete Nippon Television
1ª TV 1º agosto 2003
Aspect ratio 4:3
Durata 90 min
Rete it. Italia Teen Television
1ª TV it. 26 dicembre 2004
Preceduto da Lupin III - Episodio: 0
Seguito da Lupin III - Tutti i tesori del mondo



*************************************



Lupin III deve rimettere a posto gli oggetti rubati dall'amico ladro Mark Williams, morto da poco tempo, entro un tempo prestabilito. In cambio, gli sarà rivelata l'ubicazione del diamante oscuro, un frammento di meteorite che potrebbe condurlo ad un leggendario tesoro nascosto nella Sagrada Família dal grande architetto Antoni Gaudí.................



Lupin is given a job to return 6 treasures to their original areas for an old friend of his, so Lupin can receive an even better treasure to gain.










[spoiler]
General
Unique ID : 228219289498596367077163798110054675917 (0xABB16FB4D819B2F7B2CEB12D492475CD)
Complete name : Lupin III - Un diamante per sempre (2003).ita.jpn.sub.ita.iCV-MIRCrew.mkv
Format : Matroska
Format version : Version 2
File size : 1.02 GiB
Duration : 1h 31mn
Overall bit rate : 1 596 Kbps
Movie name : LUPIN 3 - UN DIAMANTE PER SEMPRE.Title1
Encoded date : UTC 2016-12-01 16:16:44
Writing application : DVDFab 9.1.5.7
Writing library : libebml v0.7.8 + libmatroska v0.8.1

Video
ID : 1
Format : AVC
Format/Info : Advanced Video Codec
Format profile : [email protected]
Format settings, CABAC : Yes
Format settings, ReFrames : 2 frames
Codec ID : V_MPEG4/ISO/AVC
Duration : 1h 31mn
Bit rate : 1 244 Kbps
Width : 720 pixels
Height : 544 pixels
Display aspect ratio : 4:3
Frame rate : 25.000 fps
Color space : YUV
Chroma subsampling : 4:2:0
Bit depth : 8 bits
Scan type : Progressive
Bits/(Pixel*Frame) : 0.127
Stream size : 816 MiB (78%)
Writing library : x264 core
Default : Yes
Forced : No
Color primaries : BT.601-6 525, BT.1358 525, BT.1700 NTSC, SMPTE 170M
Transfer characteristics : BT.709-5, BT.1361
Matrix coefficients : BT.601-6 525, BT.1358 525, BT.1700 NTSC, SMPTE 170M

Audio #1
ID : 2
Format : AC-3
Format/Info : Audio Coding 3
Mode extension : CM (complete main)
Codec ID : A_AC3
Duration : 1h 31mn
Bit rate mode : Constant
Bit rate : 192 Kbps
Channel(s) : 2 channels
Channel positions : Front: L R
Sampling rate : 48.0 KHz
Bit depth : 16 bits
Compression mode : Lossy
Stream size : 126 MiB (12%)
Language : Italian
Default : Yes
Forced : No

Audio #2
ID : 3
Format : AC-3
Format/Info : Audio Coding 3
Mode extension : CM (complete main)
Codec ID : A_AC3
Duration : 1h 31mn
Bit rate mode : Constant
Bit rate : 128 Kbps
Channel(s) : 2 channels
Channel positions : Front: L R
Sampling rate : 48.0 KHz
Bit depth : 16 bits
Compression mode : Lossy
Stream size : 84.0 MiB (8%)
Language : Japanese
Default : No
Forced : No

Menu
00:00:00.000 : en:(01)00:00:00:000
00:09:30.440 : en:(02)00:09:30:440
00:21:51.440 : en:(03)00:21:51:440
00:28:03.760 : en:(04)00:28:03:760
00:40:23.200 : en:(05)00:40:23:200
00:52:11.960 : en:(06)00:52:11:960
01:02:24.000 : en:(07)01:02:24:000
01:11:58.080 : en:(08)01:11:58:080
01:25:57.880 : en:(09)01:25:57:880





[/spoiler]






Sharing Widget


No Comments For This Torrent . Be The First to Comment

You must Login to Comment . Click Here to Login

Menu 1

Some content in menu 1.

Lupin III - Un diamante per sempre (2003) H264 Italian jpn Ac3 sub ita (Size: 1.0 GB)
  Lupin III - Un diamante per sempre (2003) H264 Italian jpn Ac3 sub ita 1.0 GB
tracker name
udp://tracker.leechers-paradise.org:6969/announce
udp://zer0day.ch:1337/announce
udp://open.demonii.com:1337/announce
udp://tracker.coppersurfer.tk:6969/announce
udp://exodus.desync.com:6969/announce
µTorrent compatible trackers list

Relative Torrents

Torrent Name Size Age SEED LEECH
[COMBAT MON-MON (Hiratsura Masaru)] BQB Queens Blade) [Chinese] [臭鼬娘漢
Posted by    iDope   in   Anime
11.7 MB 5 minutes 645 882
Wentworth S04 SweSub 1080p x264
Posted by    Justiso   in   TV
8.3 GB 9 minutes 370 215
Bron S04E04 MultiSubs 720p x264-StB
Posted by    TheBoss   in   TV
600.4 MB 19 minutes 6 208
Geostorm 2017 720p BluRay x264-x0r
Posted by    Trige   in   Movies
2.4 GB 23 minutes 740 162
Spiral 2005 s06e07 Engrenages EN SUB MPE4 x264 BBCrip [MPup]
Posted by    makpufterpup   in   TV
901.4 MB 39 minutes 574 723