Jersey Shore | Jessica Jones | Jill & Jessa Counting On

Guardians of the Galaxy (2014) 1920 x 80 Torrent Free Download

Seeders : 341   &   Leechers : 184      12-08-2017 (5 months)
Added: ago by PhunPsyz ***** in Movies   1.6 GB   Hits : 35
Info Hash: AC03AA24DC241692CD1AB1395CF288FEF4B1639A Download
Guardians of the Galaxy (2014) 1920 x 80 Torrent Download

Anonymous and Direct Download movies , software , shows...

Fast Safe Anonymous
movies, software, shows...
Guardians of the Galaxy
Action /Adventure /Sci-Fi  .   121 min   8.1/10
Director : James Gunn  
Tags: Guardians  of  the  Galaxy  (2014)  1920  

Released:
01 Aug 2014
After stealing a mysterious orb in the far reaches of outer space, Peter Quill from Earth, is now the main target of a manhunt led by the villain known as Ronan the Accuser. To help fight Ronan and his team and save the galaxy from his power, Quill creates a team o.... See More f space heroes known as the "Guardians of the Galaxy" to save the world.

Torrent Description



x265 Size, x264 Compatibility, HD Quality

www.imdb.com/title/tt2015381/

A group of intergalactic criminals are forced to work together to stop a fanatical warrior from taking control of the universe





Format : MPEG-4
Format profile : Base Media / Version 2
Codec ID : mp42 (isom/iso2/avc1/mp41)
File size : 1.58 GiB
Duration : 2 h 0 min
Overall bit rate mode : Variable
Overall bit rate : 1 877 kb/s
Writing application : HandBrake 1.0.7 2017040900

Video
ID : 1
Format : AVC
Format/Info : Advanced Video Codec
Format profile : [email protected]
Format settings, CABAC : Yes
Format settings, ReFrames : 8 frames
Codec ID : avc1
Codec ID/Info : Advanced Video Coding
Duration : 2 h 0 min
Bit rate : 1 711 kb/s
Width : 1 920 pixels
Height : 800 pixels
Display aspect ratio : 2.40:1
Frame rate mode : Variable
Frame rate : 23.976 (24000/1001) FPS
Minimum frame rate : 23.974 FPS
Maximum frame rate : 23.981 FPS
Color space : YUV
Chroma subsampling : 4:2:0
Bit depth : 8 bits
Scan type : Progressive
Bits/(Pixel*Frame) : 0.046
Stream size : 1.44 GiB (91%)
Writing library : x264 core 148 r2708 86b7198
Color range : Limited
Color primaries : BT.709
Transfer characteristics : BT.709
Matrix coefficients : BT.709
Menus : 3

Audio
ID : 2
Format : AAC
Format/Info : Advanced Audio Codec
Format profile : LC
Codec ID : 40
Duration : 2 h 0 min
Bit rate mode : Variable
Bit rate : 160 kb/s
Channel(s) : 2 channels
Channel positions : Front: L R
Sampling rate : 48.0 kHz
Frame rate : 46.875 FPS (1024 spf)
Compression mode : Lossy
Stream size : 138 MiB (9%)
Title : Stereo / Stereo
Language : English
Default : Yes
Alternate group : 1
Menus : 3

Menu
ID : 3
Codec ID : text
Duration : 2 h 0 min
Language : English
Bit rate mode : CBR
Menu For : 1,2
00:00:00.000 : 00:00:00.000
00:04:06.913 : 00:04:05.704
00:11:22.015 : 00:11:21.806
00:15:22.255 : 00:15:21.712
00:20:54.587 : 00:20:54.420
00:27:12.297 : 00:27:11.213
00:33:59.371 : 00:33:58.828
00:44:29.333 : 00:44:28.291
00:50:53.717 : 00:50:53.008
00:55:17.981 : 00:55:17.564
00:59:46.249 : 00:59:45.207
01:06:07.964 : 01:06:06.921
01:14:47.149 : 01:14:46.023
01:22:20.936 : 01:22:20.644
01:26:30.519 : 01:26:29.726
01:30:24.085 : 01:30:23.877
01:35:59.087 : 01:35:58.378
01:40:47.375 : 01:40:46.749
01:47:35.783 : 01:47:35.366
01:53:17.457 : 01:53:16.623
02:00:11.204 : 02:00:10.829




Sharing Widget


No Comments For This Torrent . Be The First to Comment

You must Login to Comment . Click Here to Login

Menu 1

Some content in menu 1.

Guardians of the Galaxy (2014) 1920 x 800 (1080p) x264 Phun Psyz (Size: 1.6 GB)
  Guardians of the Galaxy (2014) 1920 x 800 (1080p) x264 Phun Psyz 1.6 GB
tracker name
udp://tracker.leechers-paradise.org:6969/announce
udp://zer0day.ch:1337/announce
udp://open.demonii.com:1337/announce
udp://tracker.coppersurfer.tk:6969/announce
udp://exodus.desync.com:6969/announce
µTorrent compatible trackers list

Relative Torrents

Torrent Name Size Age SEED LEECH
Suzi Quatro - Legend The Best Of (2017)
Posted by    iDope   in   Music
181.8 MB 2 minutes 836 850
(ADULT MATERIAL) The Kinky Sex Guide So aughty & So Dirty it Was Never Publ
Posted by    iDope   in   Books
8.8 MB 2 minutes 986 681
Red Bull Signature Series - TORC Off Roa Truck Racing FULL TV EPISODE 23 mp4
Posted by    iDope   in   Video
1.6 GB 2 minutes 393 846
Lexi Layo, Raul Costa, Shona River - Tke A Turn 1280x720 mp4
Posted by    iDope   in   Video
867.5 MB 2 minutes 486 735
Modern family 9x11 HDitunes www DESCARGAMIX com avi
Posted by    iDope   in   Video
289.6 MB 8 minutes 705 606